Skip to main content

Dave Alvin Live at Golden Gate Park - Rooster Stage on 2008-10-04




Blackjack David
Dry River
Band Intros
Here In California
Abilene
Somewhere In Time>
Ashgrove
What Am I Worth
Fourth Of July
What Did The Deep Sea Say
Dave Talk
Marie Marie


Collection DaveAlvin
Band/Artist Dave Alvin
Date October 4, 2008
Venue Golden Gate Park - Rooster Stage
Location San Francisco, CA, USA

Source soundboard > edirol r09 > WAV > flash card
Lineage WAV > flash card > sony soundforge 8.0 > cd wave editor > flac frontend > tlh > dime


Notes

DAVE ALVIN AND THE GUILTYWOMEN
HARDLY STRICTLY BLUEGRASS

BAND:
DAVE ALVIN- GUITAR, VOCALS
AMY FARRIS - FIDDLE
CHRISTY MC WILSON - VOCALS
NINA GERBER - GUITAR
SARAH BROWN - BASS
CINDY CASHDOLLAR - LAP DOBRO
LISA PANKRATZ - FIDDLE, MANDOLIN
SUZY THOMPSON - ACCORDIAN

Source:
SOUNDBOARD RECORDING

SHNTOOL:
length expanded size cdr WAVE problems fmt ratio filename
8:07.36 85991516 B --- -- ---xx DaveAlvin2008-10-04-SBD-t01.flac
5:47.19 61255532 B --- -- ---xx DaveAlvin2008-10-04-SBD-t02.flac
3:09.08 33358460 B --- -- ---xx DaveAlvin2008-10-04-SBD-t03.flac
5:33.40 58835324 B --- -- ---xx DaveAlvin2008-10-04-SBD-t04.flac
9:44.25 103076444 B --- -- ---xx DaveAlvin2008-10-04-SBD-t05.flac
5:17.66 56074076 B --- -- ---xx DaveAlvin2008-10-04-SBD-t06.flac
10:16.49 108777692 B --- -- ---xx DaveAlvin2008-10-04-SBD-t07.flac
4:54.28 51927500 B --- -- ---xx DaveAlvin2008-10-04-SBD-t08.flac
4:50.52 51278348 B --- -- ---xx DaveAlvin2008-10-04-SBD-t09.flac
6:52.25 72735644 B --- -- ---xx DaveAlvin2008-10-04-SBD-t10.flac
2:34.66 27320876 B --- -- ---xx DaveAlvin2008-10-04-SBD-t11.flac
5:31.30 58459676 B -b- -- ---xx DaveAlvin2008-10-04-SBD-t12.flac
72:39.69 769091088 B 0.4886 (12 files)

Reviews

Reviewer: sharkmanlpn - - December 22, 2008
Subject: Get This Now
If you like Dave Alvin you will love this. Minor sound issues at the start otherwise a 5 star show. Might be the best thing I have heard on Archive . Just get it you will see worth the time no doubt outstanding, download now!!!
PEOPLE ALSO FOUND
Dave Alvin
by Dave Alvin
305
1
0
Source: Neumann KM140's > Beyer MV100 > Sony PCM-M10 + Soundcraft Live8 (mono) SBD > M-Audio Microtrack II > WAV @24/48
Dave Alvin
by Dave Alvin
289
1
0
Source: Neumann KM140's > Beyer MV100 > Sony PCM-M10 + Soundcraft Live8 (mono) SBD > M-Audio Microtrack II > WAV @24/48
Dave Alvin
by Dave Alvin
128
1
0
Source: AUD > DAT > CD
Dave Alvin
by Dave Alvin
1,258
1
0
Source: SBD
Dave Alvin
by Dave Alvin
8,022
3
3
( 3 reviews )
Source: SBD > DAT
Dave Alvin
by Dave Alvin
2,949
4
1
( 1 reviews )
Source: soundboard > edirol r09 > WAV > flash card
Camper Van Beethoven
by Camper Van Beethoven
11,516
1
1
( 1 reviews )
Source: Sony ECM-717 > Sharp Minidisc MD-MT190
Cracker
by Cracker
208
1
0
Source: SBD + AUD mix
Cracker
by Cracker
122
1
1
( 1 reviews )
Source: DAUD @48kHz, 24 bit
Blue Dixie
by Blue Dixie
5,708
1
1
( 1 reviews )
Source: SBD > Nakamichi > MCAS